RuneAudio+R e6

Raspberry Pi related support

Re: RuneAudio+R e6

Postby Beelzebassie » 29 Oct 2020, 10:57

amonduulii wrote:USB Stick drive contains a variety of MP3s and FLACs. I have some pure FLAC file albums that play fine. I also have an album folder of FLACs with one *.cue file. RuneAudio seem sto process and recognize this folder just fine, but the flac's refuse to play. The songs just seem to be listed as *.cue files. I've tired rebuilding libraries, etc. Basically, everything works great except for FLACs that have some sort of *.cue file presence. No playing. I have ffMPeg decoder turned on too.


I primarily use CUE-sheets with RuneAudio, so could you drop one of those sheets in here? Maybe they're not compliant? (I always format them as UTF-8 btw.)
Raspberry Pi 3B (rev. 1.2) | Allo DigiOne | RME ADI-2 DAC FS
Beelzebassie
 
Posts: 56
Joined: 09 Nov 2014, 12:16

Re: RuneAudio+R e6

Postby Beelzebassie » 29 Oct 2020, 11:04

@rern

Is there a way to see how much memory of max_output_buffer_size is actually used?
Raspberry Pi 3B (rev. 1.2) | Allo DigiOne | RME ADI-2 DAC FS
Beelzebassie
 
Posts: 56
Joined: 09 Nov 2014, 12:16

Re: RuneAudio+R e6

Postby kailua » 29 Oct 2020, 17:51

Great work, it is playing happily! But how can I play the audio via my Bluetooth speaker? It is paired and connected according to the Network menu. Where is the option to redirect audio to the BT speaker?
kailua
 
Posts: 5
Joined: 27 Feb 2020, 19:29

Re: RuneAudio+R e6

Postby kiko » 29 Oct 2020, 20:02

I solved the issue with my two IP addresses by rebuilding iTunes as ITunes1.

I also re-installed R-e6 as every time I would access the System page and try to leave it, I would reboot the system as it could not contact the 172.30.10.3 address, even though the mounts were mounted.

Now, that issue is also gone.

I still have the

Oct 29 09:43 : exception: error on client 20: Output buffer is full

Issue
kiko
 
Posts: 14
Joined: 08 Oct 2020, 18:01

Re: RuneAudio+R e6

Postby amonduulii » 29 Oct 2020, 23:29

Beelzebassie wrote:
amonduulii wrote:USB Stick drive contains a variety of MP3s and FLACs. I have some pure FLAC file albums that play fine. I also have an album folder of FLACs with one *.cue file. RuneAudio seem sto process and recognize this folder just fine, but the flac's refuse to play. The songs just seem to be listed as *.cue files. I've tired rebuilding libraries, etc. Basically, everything works great except for FLACs that have some sort of *.cue file presence. No playing. I have ffMPeg decoder turned on too.


I primarily use CUE-sheets with RuneAudio, so could you drop one of those sheets in here? Maybe they're not compliant? (I always format them as UTF-8 btw.)


Hi!
Pasting in an example of the problematic cue file.

REM GENRE Krautrock
REM DATE 1971
REM DISCID 49113A07
REM COMMENT "ExactAudioCopy v1.0b1"
PERFORMER "Can"
TITLE "Tago Mago"
FILE "01 - Paperhouse.wav" WAVE
TRACK 01 AUDIO
TITLE "Paperhouse"
PERFORMER "Can"
INDEX 01 00:00:00
FILE "02 - Mushroom.wav" WAVE
TRACK 02 AUDIO
TITLE "Mushroom"
PERFORMER "Can"
INDEX 01 00:00:00
FILE "03 - Oh Yeah.wav" WAVE
TRACK 03 AUDIO
TITLE "Oh Yeah"
PERFORMER "Can"
INDEX 01 00:00:00
TRACK 04 AUDIO
TITLE "Halleluhwah"
PERFORMER "Can"
INDEX 00 07:22:15
FILE "04 - Halleluhwah.wav" WAVE
INDEX 01 00:00:00
TRACK 05 AUDIO
TITLE "Aumgn"
PERFORMER "Can"
INDEX 00 18:30:53
FILE "05 - Aumgn.wav" WAVE
INDEX 01 00:00:00
TRACK 06 AUDIO
TITLE "Peking O"
PERFORMER "Can"
INDEX 00 17:29:43
FILE "06 - Peking O.wav" WAVE
INDEX 01 00:00:00
TRACK 07 AUDIO
TITLE "Bring Me Coffee or Tea"
PERFORMER "Can"
INDEX 00 11:35:50
FILE "07 - Bring Me Coffee or Tea.wav" WAVE
INDEX 01 00:00:00
amonduulii
 
Posts: 4
Joined: 08 Sep 2020, 19:52

Re: RuneAudio+R e6

Postby Beelzebassie » 30 Oct 2020, 18:45

amonduulii wrote:REM GENRE Krautrock
REM DATE 1971
REM DISCID 49113A07
REM COMMENT "ExactAudioCopy v1.0b1"
PERFORMER "Can"
TITLE "Tago Mago"
FILE "01 - Paperhouse.wav" WAVE
TRACK 01 AUDIO
TITLE "Paperhouse"
PERFORMER "Can"
INDEX 01 00:00:00
FILE "02 - Mushroom.wav" WAVE
TRACK 02 AUDIO
TITLE "Mushroom"
PERFORMER "Can"
INDEX 01 00:00:00
FILE "03 - Oh Yeah.wav" WAVE
TRACK 03 AUDIO
TITLE "Oh Yeah"
PERFORMER "Can"
INDEX 01 00:00:00
TRACK 04 AUDIO
TITLE "Halleluhwah"
PERFORMER "Can"
INDEX 00 07:22:15
FILE "04 - Halleluhwah.wav" WAVE
INDEX 01 00:00:00
TRACK 05 AUDIO
TITLE "Aumgn"
PERFORMER "Can"
INDEX 00 18:30:53
FILE "05 - Aumgn.wav" WAVE
INDEX 01 00:00:00
TRACK 06 AUDIO
TITLE "Peking O"
PERFORMER "Can"
INDEX 00 17:29:43
FILE "06 - Peking O.wav" WAVE
INDEX 01 00:00:00
TRACK 07 AUDIO
TITLE "Bring Me Coffee or Tea"
PERFORMER "Can"
INDEX 00 11:35:50
FILE "07 - Bring Me Coffee or Tea.wav" WAVE
INDEX 01 00:00:00

Replace all the "*.wav" extensions to ".flac" in the CUE-sheet.
Raspberry Pi 3B (rev. 1.2) | Allo DigiOne | RME ADI-2 DAC FS
Beelzebassie
 
Posts: 56
Joined: 09 Nov 2014, 12:16

Re: RuneAudio+R e6

Postby amonduulii » 31 Oct 2020, 02:21

Thank you! This solved it.
amonduulii
 
Posts: 4
Joined: 08 Sep 2020, 19:52

Re: RuneAudio+R e6

Postby klassikmann » 01 Nov 2020, 09:24

Issue in Re6 202010261

I can't select (click no effect) the following album, neither in album nor in folder mode. The album tracks can be searched.
Code: Select all
Album Title : 4 Way Street
Artist Name : Crosby, Stills, Nash & Young
Album Artist : Crosby, Stills, Nash & Young
Genre : Rock
Date : 1970
Total Tracks : 21

klassikmann
RPI 3B + HifiBerry Digi+ Pro + RuneAudio+R e6
klassikmann
 
Posts: 181
Joined: 27 Apr 2016, 18:36

Re: RuneAudio+R e6

Postby ceejayemm » 01 Nov 2020, 10:57

@rern

How do I now enable the on-board browser to use RA+Re6 with an RPI Touchscreen ? The option to enable the browser seems to have disappeared from the System or Features pages. Has it been renamed or am I missing it elsewhere ?

Thanks

Chris
ceejayemm
 
Posts: 125
Joined: 29 Oct 2016, 18:13

Re: RuneAudio+R e6

Postby klassikmann » 01 Nov 2020, 11:42

ceejayemm wrote:@rern

How do I now enable the on-board browser to use RA+Re6 with an RPI Touchscreen ? The option to enable the browser seems to have disappeared from the System or Features pages. Has it been renamed or am I missing it elsewhere ?

Thanks

Chris

Can't confirm. "Browser on RPi" is available in the features menu, here (Re6 202010261).

klassikmann
RPI 3B + HifiBerry Digi+ Pro + RuneAudio+R e6
klassikmann
 
Posts: 181
Joined: 27 Apr 2016, 18:36

support RuneAudio Donate with PayPal

PreviousNext

Return to Raspberry Pi

Who is online

Users browsing this forum: Google [Bot] and 8 guests